Lightnin' Hopkins - Goin' Away (1963) [APO Remaster 2018] SACD ISO + Hi-Res FLAC

Posted By: HDAtall
Lightnin' Hopkins - Goin' Away (1963) [APO Remaster 2018] SACD ISO + Hi-Res FLAC

Lightnin' Hopkins - Goin' Away (1963) [Analogue Productions 2018]
SACD Rip | SACD ISO | DSD64 2.0 > 1-bit/2.8224 MHz | 35:18 minutes | Front/Rear Covers | 1015 MB
or FLAC(converted with foobar2000 to tracks) 24bit/88,2 kHz | Front/Rear Covers | 715 MB

Sam "Lightnin’" Hopkins, a true poet who invented most of his lyrics on the spot and never seemed to run out of new ideas, was a blues giant of post-war blues whose style was rooted in pre-war Texas traditions. While he cranked up his amp to fierce proportions when performing for his friends at Houston juke joints, producers who recorded him for the so-called folk-blues market usually insisted that he use an acoustic guitar for more “authentic” results. Either way, Lightnin’ seldom made a bad record, and this June 4, 1963, session on which he played acoustic was among his finest, thanks much to the sensitive support of bassist Leonard Gaskin and drummer Herbie Lovelle, who did a remarkable job of following his irregular bar patterns and abrupt song endings.

For the 1963 album Goin' Away, Lightnin' Hopkins was backed by a spare rhythm section – bassist Leonard Gaskin and drummer Herb Lovelle – who managed to follow his ramshackle, instinctual sense of rhythm quite dexterously, giving Hopkins' skeletal guitar playing some muscle. Still, the spotlight remains Hopkins, who is in fine form here. There are no real classics here, but everything is solid, particularly "Stranger Here" and "You Better Stop Her," making it worth investigation by serious fans of Hopkins' classic material.

Tracklist:

01. Wake Up Old Lady
02. Don't Embarrass Me, Baby
03. Stranger Here
04. Little Sister's Boogie
05. Goin' Away
06. You Better Stop Her
07. Business You'r Doin'
08. I'm Wit' It

Recorded on June 4, 1963 at Rudy Van Gelder Studio, Englewood Cliffs, NJ.
Mastered from the original analog master tapes by Kevin Gray.

Personnel
Lightnin' Hopkins - vocals, acoustic guitar
Leonard Gaskin - bass
Herbie Lovelle - drums

foobar2000 1.3.17 / Dynamic Range Meter 1.1.1

––––––––––––––––––––––––––––––––––––––––
Analyzed: Lightnin' Hopkins / Goin' Away
––––––––––––––––––––––––––––––––––––––––

DR Peak RMS Duration Track
––––––––––––––––––––––––––––––––––––––––
DR15 -5.36 dB -26.90 dB 4:27 01-Wake Up Old Lady
DR13 -6.73 dB -23.34 dB 3:24 02-Don't Embarrass Me, Baby
DR15 -5.84 dB -26.24 dB 5:54 03-Stranger Here
DR15 -9.05 dB -26.83 dB 3:37 04-Little Sister's Boogie
DR15 -8.22 dB -27.35 dB 5:49 05-Goin' Away
DR15 -7.13 dB -24.46 dB 4:43 06-You Better Stop Her
DR13 -7.24 dB -23.51 dB 3:22 07-Business You'r Doin'
DR14 -6.08 dB -25.26 dB 4:03 08-I'm Wit' It
––––––––––––––––––––––––––––––––––––––––

Number of tracks: 8
Official DR value: DR14

Samplerate: 2822400 Hz / PCM Samplerate: 88200 Hz
Channels: 2
Bits per sample: 1
Bitrate: 5645 kbps
Codec: DSD64


Thanks to jazzyman!
Uncompressed SACD ISO size > 1,41 GB
>
Sitemap1x06 La Lapide Rubata | Intrattenimento | Mildred Pierce 1984 Essay | Sing meinen Song - Das Tauschkonzert (13) | 1x04 Playing for Keeps