John Kameel Farah - Strands (Solo Piano Improvisations) (2018) [Official Digital Download]

Posted By: SERTiL
John Kameel Farah - Strands (Solo Piano Improvisations) (2018) [Official Digital Download]

John Kameel Farah - Strands (Solo Piano Improvisations) (2018)
FLAC (tracks) 24-bit/44.1 kHz | Time - 29:57 minutes | 244 MB
Studio Master, Official Digital Download | Artwork: Front Cover

Intuitive, creative and playful - Canadian composer, pianist and producer John Kameel Farah dedicates his new album "Strands" to the art of improvisation. Without a specific plan, style or genre. Creativity in its purest form.

While in his previous works he creates dense sounds through the simultaneous use of piano, synthesizer, computer and sometimes harpsichord, he now devotes himself to the piano as a solo instrument. His first foretaste of the album is his single "Brooding".

Canadian composer, pianist and visual artist John Kameel Farah's second release on the Neue Meister label, "Strands" shows his more intuitive improvisation side. "Since my other albums are very meticulously composed, I thought it would be good to capture my improvisation side as well, since I've had a life as an improviser, but haven't officially released any improvisation recordings to date", says John. There was no plan, no style or genre in mind; Kameel Farah allowed his creativity and playfulness free reign.

"I went to the piano shop 'Klavieretage' to record the piano part for Steve Reich's 'Six Pianos' for Gregor Schwellenbach, and Carsten Schulz, the owner, gave me a whole day to record on a Feurich upright piano. After I finished the 'Six Pianos', I realized I had a couple of hours left, so I decided to record some piano improvisations just for myself", he explains.

Simultaneously using piano, synthesizer, computer, and at times harpsichord and organ, John Kameel Farah's solo performances exist between the worlds of the concert hall and the electronic producer, mixing forays into experimental improvisation, jazz, electro–acoustics, middle-eastern modes and rhythms with electronic genres such as Techno and Drum & Bass.

Tracklist:
1. Mal Sehen 03:02
2. Wind Formations 02:33
3. Singing Wave 03:23
4. White Canvas 02:24
5. Broken Parts 04:13
6. Brooding 03:05
7. En Passant 03:15
8. Doom Code 04:40
9. Thought Lines 03:27

Personnel:
John Kameel Farah, piano

foobar2000 1.3.7 / Dynamic Range Meter 1.1.1
log date: 2018-07-03 18:34:51

––––––––––––––––––––––––––––––––––––––––
Analyzed: John Kameel Farah / Strands (Solo Piano Improvisations)
––––––––––––––––––––––––––––––––––––––––

DR Peak RMS Duration Track
––––––––––––––––––––––––––––––––––––––––
DR12 -1.50 dB -17.66 dB 3:02 01-Mal Sehen
DR12 -0.70 dB -16.26 dB 2:33 02-Wind Formations
DR13 -0.60 dB -18.00 dB 3:23 03-Singing Wave
DR13 -1.50 dB -18.95 dB 2:24 04-White Canvas
DR13 0.00 dB -18.64 dB 4:13 05-Broken Parts
DR14 -1.00 dB -19.25 dB 3:05 06-Brooding
DR15 -1.70 dB -20.60 dB 3:15 07-En Passant
DR14 -0.89 dB -19.16 dB 4:40 08-Doom Code
DR13 -0.96 dB -18.99 dB 3:27 09-Thought Lines
––––––––––––––––––––––––––––––––––––––––

Number of tracks: 9
Official DR value: DR13

Samplerate: 44100 Hz
Channels: 2
Bits per sample: 24
Bitrate: 1107 kbps
Codec: FLAC
================================================================================


Thanks to the Original customer.
Sitemapsamples 22 | Real Housewives of Orange County, The | Knowledge Spiritualität & Religion | Mortal Kombat: Legacy | Adobe Acrobat Pro DC 2018.011.20038 Multi + Crack (MacOSX)