Dottie West - Sings Sacred Ballads (1967/2018) [Official Digital Download 24/192]

Posted By: Pisulik
Dottie West - Sings Sacred Ballads (1967/2018) [Official Digital Download 24/192]

Dottie West - Sings Sacred Ballads (1967/2018)
FLAC (tracks) 24-bit/192 kHz | Time - 35:18 minutes | 1,33 GB
Studio Master, Official Digital Download | Artwork: Front cover

This album was West's first Christian/Inspirational music album. The album featured all Christian-music songs, that had been well-known and well-acknowledged. Songs like "How Great Thou Art" and "His Eye is on the Sparrow" were featured on the album. The album received critical acclaim at the time, and nominated West for a Grammy Award for Best Sacred Performance, her first for that category.

Tracklist:

01. How Great Thou Art
02. I Believe
03. You'll Never Walk Alone
04. I'm Grateful
05. King of Kings
06. The Lord's Prayer
07. Lord, Is It I
08. His Eye Is on the Sparrow
09. In God's Eye
10. Then I Met the Master
11. Where No One Stands Alone
12. Savior, Again to Thy Dear Name We Raise

foobar2000 1.3.7 / Dynamic Range Meter 1.1.1
log date: 2018-07-03 17:24:01

––––––––––––––––––––––––––––––––––––––––
Analyzed: Dottie West / Sings Sacred Ballads
––––––––––––––––––––––––––––––––––––––––

DR Peak RMS Duration Track
––––––––––––––––––––––––––––––––––––––––
DR11 -1.41 dB -15.98 dB 3:57 01-How Great Thou Art
DR11 -0.97 dB -15.86 dB 2:28 02-I Believe
DR10 -2.02 dB -15.80 dB 2:36 03-You'll Never Walk Alone
DR11 -1.04 dB -16.18 dB 3:29 04-I'm Grateful
DR10 -2.30 dB -16.17 dB 3:21 05-King of Kings
DR11 0.00 dB -16.43 dB 2:26 06-The Lord's Prayer
DR11 -1.37 dB -15.13 dB 2:34 07-Lord, Is It I
DR9 -0.46 dB -15.22 dB 3:34 08-His Eye Is on the Sparrow
DR11 -1.85 dB -16.31 dB 2:45 09-In God's Eye
DR10 -0.81 dB -15.01 dB 2:35 10-Then I Met the Master
DR10 -0.40 dB -14.60 dB 2:52 11-Where No One Stands Alone
DR10 -1.32 dB -15.08 dB 3:16 12-Savior, Again to Thy Dear Name We Raise
––––––––––––––––––––––––––––––––––––––––

Number of tracks: 12
Official DR value: DR10

Samplerate: 192000 Hz
Channels: 2
Bits per sample: 24
Bitrate: 5373 kbps
Codec: FLAC
================================================================================


All thanks go to the original releaser
Sitemap小英雄大聯盟-就是要秀 | Oscillococcinum 30 Dosi 200K Granuli Boiron Omeopatico +Campioni +Coupon | Yondemasu yo, Azazel-san. Z Taskmaster - Season 7 | Facebook/APKReal Mania | Kami Nomi Zo Shiru Sekai : Megami Hen BD Subtitle Indonesia