Pierre Fournier & Wilhelm Kempff - Beethoven: Cello Works (1966/2018) [Official Digital Download 24/96]

Posted By: SERTiL
Pierre Fournier & Wilhelm Kempff - Beethoven: Cello Works (1966/2018) [Official Digital Download 24/96]

Pierre Fournier & Wilhelm Kempff - Beethoven: Cello Works (1966/2018)
FLAC (tracks) 24-bit/96 kHz | Time - 132:33 minutes | 2.60 GB
Studio Master, Official Digital Download | Artwork: Front Cover

"Pierre Fournier’s 1965 collaboration with Wilhelm Kempff yielded one of the greatest complete recordings of the Beethoven cello sonatas. Their account of Op. 69 epitomises the nobility and eloquence of these unparalleled interpretations, and CD transfers are remarkably spacious and detailed." (Michael Jameson, BBC Music Magazine)

Tracklist:
1. Sonata for Piano and Violoncello op.5, No.1 in F major : 1. Adagio sostenuto - allegro 14:32
2. Sonata for Piano and Violoncello op.5, No.1 in F major : 2. Rondo. Allegro vivace 07:06
3. Sonata for Piano and Violoncello op.5, No.2 in G minor : 1. Adagio sostenuto e espressivo - Allegro molto più tosto presto 13:01
4. Sonata for Piano and Violoncello op.5, No.2 in G minor : 2. Rondo. Allegro 08:48
5. Sonata For Cello And Piano No.3 In A, Op.69 : 1. Allegro ma non tanto 09:09
6. Sonata For Cello And Piano No.3 In A, Op.69 : 2. Scherzo (Allegro molto) 05:36
7. Sonata For Cello And Piano No.3 In A, Op.69 : 3. Adagio cantabile - Allegro vivace 07:07
8. Sonata for Cello and Piano No.4 in C, Op.102 No.1 : 1. Andante - Allegro vivace 08:01
9. Sonata for Cello and Piano No.4 in C, Op.102 No.1 : 2. Adagio - Tempo d'andante - Allegro vivace 07:07
10. Sonata for Cello and Piano No.5 in D, Op.102 No.2 : 1. Allegro con brio 06:36
11. Sonata for Cello and Piano No.5 in D, Op.102 No.2 : 2. Adagio con molto sentimento d'affetto 08:49
12. Sonata for Cello and Piano No.5 in D, Op.102 No.2 : 3. Allegro - Allegro fugato 04:46
13. 12 Variations on "See the conquering hero comes" for Cello and Piano, WoO 45 : Thema. Allegretto 00:43
14. 12 Variations on "See the conquering hero comes" for Cello and Piano, WoO 45 : Variation I 00:40
15. 12 Variations on "See the conquering hero comes" for Cello and Piano, WoO 45 : Variation II 00:42
16. 12 Variations on "See the conquering hero comes" for Cello and Piano, WoO 45 : Variation III 00:41
17. 12 Variations on "See the conquering hero comes" for Cello and Piano, WoO 45 : Variation IV 00:45
18. 12 Variations on "See the conquering hero comes" for Cello and Piano, WoO 45 : Variation V 00:46
19. 12 Variations on "See the conquering hero comes" for Cello and Piano, WoO 45 : Variation VI 00:43
20. 12 Variations on "See the conquering hero comes" for Cello and Piano, WoO 45 : Variation VII 00:38
21. 12 Variations on "See the conquering hero comes" for Cello and Piano, WoO 45 : Variation VIII 00:41
22. 12 Variations on "See the conquering hero comes" for Cello and Piano, WoO 45 : Variation IX 00:42
23. 12 Variations on "See the conquering hero comes" for Cello and Piano, WoO 45 : Variation X. Allegro 00:40
24. 12 Variations on "See the conquering hero comes" for Cello and Piano, WoO 45 : Variation XI. Adagio 03:19
25. 12 Variations on "See the conquering hero comes" for Cello and Piano, WoO 45 : Variation XII. Allegro 01:05
26. 7 Variations on "Bei Männern, welche Liebe fühlen", for Cello and Piano, WoO 46 : Theme. Andante 00:50
27. 7 Variations on "Bei Männern, welche Liebe fühlen", for Cello and Piano, WoO 46 : Variation I 00:41
28. 7 Variations on "Bei Männern, welche Liebe fühlen", for Cello and Piano, WoO 46 : Variation II 00:45
29. 7 Variations on "Bei Männern, welche Liebe fühlen", for Cello and Piano, WoO 46 : Variation III 00:56
30. 7 Variations on "Bei Männern, welche Liebe fühlen", for Cello and Piano, WoO 46 : Variation IV 01:19
31. 7 Variations on "Bei Männern, welche Liebe fühlen", for Cello and Piano, WoO 46 : Variation V. Si prenda il tempo un poco più vivace 00:35
32. 7 Variations on "Bei Männern, welche Liebe fühlen", for Cello and Piano, WoO 46 : Variation VI. Adagio 02:12
33. 7 Variations on "Bei Männern, welche Liebe fühlen", for Cello and Piano, WoO 46 : Variation VII. Allegro, ma non troppo 01:58
34. 12 Variations on "Ein Mädchen oder Weibchen" for Cello and Piano, Op. 66 : Thema. Allegretto 00:34
35. 12 Variations on "Ein Mädchen oder Weibchen" for Cello and Piano, Op. 66 : Variation I 00:35
36. 12 Variations on "Ein Mädchen oder Weibchen" for Cello and Piano, Op. 66 : Variation II 00:34
37. 12 Variations on "Ein Mädchen oder Weibchen" for Cello and Piano, Op. 66 : Variation III 00:29
38. 12 Variations on "Ein Mädchen oder Weibchen" for Cello and Piano, Op. 66 : Variation IV 00:38
39. 12 Variations on "Ein Mädchen oder Weibchen" for Cello and Piano, Op. 66 : Variation V 00:31
40. 12 Variations on "Ein Mädchen oder Weibchen" for Cello and Piano, Op. 66 : Variation VI 00:30
41. 12 Variations on "Ein Mädchen oder Weibchen" for Cello and Piano, Op. 66 : Variation VII 00:45
42. 12 Variations on "Ein Mädchen oder Weibchen" for Cello and Piano, Op. 66 : Variation VIII 00:30
43. 12 Variations on "Ein Mädchen oder Weibchen" for Cello and Piano, Op. 66 : Variation IX 00:39
44. 12 Variations on "Ein Mädchen oder Weibchen" for Cello and Piano, Op. 66 : Variation X. Adagio 01:28
45. 12 Variations on "Ein Mädchen oder Weibchen" for Cello and Piano, Op. 66 : Variation XI. Poco Adagio, quasi Andante 01:21
46. 12 Variations on "Ein Mädchen oder Weibchen" for Cello and Piano, Op. 66 : Variation XII. Allegro 02:00

Personnel:
Pierre Fournier, cello
Wilhelm Kempff, piano

foobar2000 1.3.7 / Dynamic Range Meter 1.1.1
log date: 2018-07-03 22:24:38

––––––––––––––––––––––––––––––––––––––––
Analyzed: Pierre Fournier & Wilhelm Kempff / Beethoven: Cello Works
––––––––––––––––––––––––––––––––––––––––

DR Peak RMS Duration Track
––––––––––––––––––––––––––––––––––––––––
DR14 -0.45 dB -21.18 dB 14:33 01-Sonata for Piano and Violoncello op.5, No.1 in F major : 1. Adagio sostenuto - allegro
DR13 -2.60 dB -21.56 dB 7:06 02-Sonata for Piano and Violoncello op.5, No.1 in F major : 2. Rondo. Allegro vivace
DR14 -0.92 dB -21.60 dB 13:01 03-Sonata for Piano and Violoncello op.5, No.2 in G minor : 1. Adagio sostenuto e espressivo - Allegro molto più tosto presto
DR14 -1.44 dB -22.31 dB 8:48 04-Sonata for Piano and Violoncello op.5, No.2 in G minor : 2. Rondo. Allegro
DR12 -1.74 dB -19.95 dB 9:10 05-Sonata For Cello And Piano No.3 In A, Op.69 : 1. Allegro ma non tanto
DR14 -1.96 dB -21.06 dB 5:37 06-Sonata For Cello And Piano No.3 In A, Op.69 : 2. Scherzo (Allegro molto)
DR13 -1.29 dB -20.37 dB 7:07 07-Sonata For Cello And Piano No.3 In A, Op.69 : 3. Adagio cantabile - Allegro vivace
DR14 -1.37 dB -20.82 dB 8:01 08-Sonata for Cello and Piano No.4 in C, Op.102 No.1 : 1. Andante - Allegro vivace
DR14 -1.47 dB -21.68 dB 7:08 09-Sonata for Cello and Piano No.4 in C, Op.102 No.1 : 2. Adagio - Tempo d'andante - Allegro vivace
DR14 -1.69 dB -20.16 dB 6:37 10-Sonata for Cello and Piano No.5 in D, Op.102 No.2 : 1. Allegro con brio
DR15 -4.01 dB -27.38 dB 8:49 11-Sonata for Cello and Piano No.5 in D, Op.102 No.2 : 2. Adagio con molto sentimento d'affetto
DR12 -2.21 dB -20.11 dB 4:46 12-Sonata for Cello and Piano No.5 in D, Op.102 No.2 : 3. Allegro - Allegro fugato
DR11 -6.20 dB -22.38 dB 0:43 13-12 Variations on "See the conquering hero comes" for Cello and Piano, WoO 45 : Thema. Allegretto
DR10 -10.49 dB -26.15 dB 0:41 14-12 Variations on "See the conquering hero comes" for Cello and Piano, WoO 45 : Variation I
DR11 -9.23 dB -25.28 dB 0:43 15-12 Variations on "See the conquering hero comes" for Cello and Piano, WoO 45 : Variation II
DR12 -3.92 dB -24.05 dB 0:42 16-12 Variations on "See the conquering hero comes" for Cello and Piano, WoO 45 : Variation III
DR11 -7.95 dB -24.59 dB 0:46 17-12 Variations on "See the conquering hero comes" for Cello and Piano, WoO 45 : Variation IV
DR12 -5.15 dB -26.10 dB 0:47 18-12 Variations on "See the conquering hero comes" for Cello and Piano, WoO 45 : Variation V
DR10 -7.05 dB -22.54 dB 0:44 19-12 Variations on "See the conquering hero comes" for Cello and Piano, WoO 45 : Variation VI
DR11 -6.90 dB -25.38 dB 0:38 20-12 Variations on "See the conquering hero comes" for Cello and Piano, WoO 45 : Variation VII
DR10 -4.21 dB -18.53 dB 0:41 21-12 Variations on "See the conquering hero comes" for Cello and Piano, WoO 45 : Variation VIII
DR9 -6.08 dB -26.74 dB 0:42 22-12 Variations on "See the conquering hero comes" for Cello and Piano, WoO 45 : Variation IX
DR11 -5.81 dB -19.28 dB 0:40 23-12 Variations on "See the conquering hero comes" for Cello and Piano, WoO 45 : Variation X. Allegro
DR15 -8.88 dB -29.37 dB 3:20 24-12 Variations on "See the conquering hero comes" for Cello and Piano, WoO 45 : Variation XI. Adagio
DR13 -0.69 dB -20.67 dB 1:05 25-12 Variations on "See the conquering hero comes" for Cello and Piano, WoO 45 : Variation XII. Allegro
DR11 -9.28 dB -26.67 dB 0:50 26-7 Variations on "Bei Männern, welche Liebe fühlen", for Cello and Piano, WoO 46 : Variation I
DR12 -7.41 dB -24.96 dB 0:42 27-7 Variations on _Bei Mannern, welche Liebe fuhlen_, for Cello and Piano, WoO 46 _ Variation I
DR12 -6.37 dB -23.60 dB 0:45 28-7 Variations on "Bei Männern, welche Liebe fühlen", for Cello and Piano, WoO 46 : Variation II
DR11 -4.67 dB -24.14 dB 0:57 29-7 Variations on "Bei Männern, welche Liebe fühlen", for Cello and Piano, WoO 46 : Variation III
DR12 -8.13 dB -25.29 dB 1:20 30-7 Variations on "Bei Männern, welche Liebe fühlen", for Cello and Piano, WoO 46 : Variation IV
DR12 -8.18 dB -24.31 dB 0:36 31-7 Variations on "Bei Männern, welche Liebe fühlen", for Cello and Piano, WoO 46 : Variation V. Si prenda il tempo un poco più vivace
DR11 -12.39 dB -28.25 dB 2:13 32-7 Variations on "Bei Männern, welche Liebe fühlen", for Cello and Piano, WoO 46 : Variation VI. Adagio
DR12 -4.65 dB -22.88 dB 1:59 33-7 Variations on "Bei Männern, welche Liebe fühlen", for Cello and Piano, WoO 46 : Variation VII. Allegro, ma non troppo
DR11 -8.53 dB -25.81 dB 0:34 34-12 Variations on "Ein Mädchen oder Weibchen" for Cello and Piano, Op. 66 : Thema. Allegretto
DR12 -10.34 dB -26.48 dB 0:36 35-12 Variations on "Ein Mädchen oder Weibchen" for Cello and Piano, Op. 66 : Variation I
DR10 -10.01 dB -25.07 dB 0:35 36-12 Variations on "Ein Mädchen oder Weibchen" for Cello and Piano, Op. 66 : Variation II
DR12 -8.08 dB -23.28 dB 0:29 37-12 Variations on "Ein Mädchen oder Weibchen" for Cello and Piano, Op. 66 : Variation III
DR11 -11.46 dB -27.80 dB 0:39 38-12 Variations on "Ein Mädchen oder Weibchen" for Cello and Piano, Op. 66 : Variation IV
DR12 -5.98 dB -21.06 dB 0:31 39-12 Variations on "Ein Mädchen oder Weibchen" for Cello and Piano, Op. 66 : Variation V
DR11 -8.76 dB -25.00 dB 0:30 40-12 Variations on "Ein Mädchen oder Weibchen" for Cello and Piano, Op. 66 : Variation VI
DR11 -11.25 dB -28.84 dB 0:45 41-12 Variations on "Ein Mädchen oder Weibchen" for Cello and Piano, Op. 66 : Variation VII
DR13 -3.04 dB -20.54 dB 0:30 42-12 Variations on "Ein Mädchen oder Weibchen" for Cello and Piano, Op. 66 : Variation VIII
DR13 -6.96 dB -25.44 dB 0:40 43-12 Variations on "Ein Mädchen oder Weibchen" for Cello and Piano, Op. 66 : Variation IX
DR15 -9.12 dB -29.88 dB 1:28 44-12 Variations on "Ein Mädchen oder Weibchen" for Cello and Piano, Op. 66 : Variation X. Adagio
DR14 -9.08 dB -29.31 dB 1:22 45-12 Variations on "Ein Mädchen oder Weibchen" for Cello and Piano, Op. 66 : Variation XI. Poco Adagio, quasi Andante
DR12 -3.16 dB -22.83 dB 2:00 46-12 Variations on "Ein Mädchen oder Weibchen" for Cello and Piano, Op. 66 : Variation XII. Allegro
––––––––––––––––––––––––––––––––––––––––

Number of tracks: 46
Official DR value: DR12

Samplerate: 96000 Hz
Channels: 2
Bits per sample: 24
Bitrate: 2780 kbps
Codec: FLAC
================================================================================


Thanks to the Original customer.
SitemapOMRON M2 Basic Misuratore di Pressione da Braccio Digitale HEM-7120-IN | 12 Striped Homespun Fabric Candy Canes Primitive Farmhouse Christmas Ornaments | The Tudors Eps7 Game of Thrones - Season 7 (2017) | Megadeth - That One Night Live in Buenos Aires 2005. | Michael Kors Selma Medium Tasche Cognach Wi Neu