Floex & Tom Hodge feat. Prague Radio Symphony Orchestra - A Portrait of John Doe (2018) [Official Digital Download]

Posted By: SERTiL
Floex & Tom Hodge feat. Prague Radio Symphony Orchestra - A Portrait of John Doe (2018) [Official Digital Download]

Floex & Tom Hodge feat. Prague Radio Symphony Orchestra - A Portrait of John Doe (2018)
FLAC (tracks) 24-bit/44.1 kHz | Time - 49:48 minutes | 550 MB
Studio Master, Official Digital Download | Artwork: Front Cover

Floex (Tomáš Dvorak) is a Techno DJ, a composer and a multimedia artist from Prague, Czech Republic. Tom Hodge is a composer, pianist and clarinettist from London.

Floex has had over 4 MILLIONS streams on Spotify alone in the last 3 years and Tom has been scoring music to picture for over 15 years with credits including 3 feature films, a BAFTA nominated animation, TV themes and over 250 synch in advertising!

These two exceptional artists have come together to create a spectacular new album. The collaboration creates a new level of synergy where orchestral music and industrial electronic blends into a unique and organic universe.

Lead cut 'Wednesday (Is The New Friday)' matched raucous party bedlam to a search for fresh sounds, a cautious dynamic that consistently pushes the song ahead! – Clash

Tracklist:
1. Inauguration Of Nobody 06:17
2. Wednesday (Is The New Friday) 05:37
3. Machines Are Dancing 07:30
4. John Doe Arise 04:58
5. I Dream Of Ikaria 06:54
6. Prelude I 06:10
7. Prelude II 01:34
8. Resurgence 04:29
9. Requiem 06:14

Personnel:
Floex, dj
Tom Hodge, piano
Prague Radio Symphony Orchestra

foobar2000 1.3.7 / Dynamic Range Meter 1.1.1
log date: 2018-07-03 19:59:43

––––––––––––––––––––––––––––––––––––––––
Analyzed: Floex & Tom Hodge feat. Prague Radio Symphony Orchestra / A Portrait Of John Doe
––––––––––––––––––––––––––––––––––––––––

DR Peak RMS Duration Track
––––––––––––––––––––––––––––––––––––––––
DR9 -0.40 dB -12.66 dB 6:19 01-Inauguration Of Nobody
DR5 -0.40 dB -9.74 dB 5:41 02-Wednesday (Is The New Friday)
DR8 -0.40 dB -11.53 dB 7:32 03-Machines Are Dancing
DR8 -0.40 dB -10.90 dB 4:58 04-John Doe Arise
DR7 -0.40 dB -11.21 dB 6:54 05-I Dream Of Ikaria
DR6 -0.40 dB -9.60 dB 6:10 06-Prelude I
DR7 -0.40 dB -10.27 dB 1:34 07-Prelude II
DR5 -0.40 dB -9.90 dB 4:29 08-Resurgence
DR8 -0.40 dB -13.43 dB 6:14 09-Requiem
––––––––––––––––––––––––––––––––––––––––

Number of tracks: 9
Official DR value: DR7

Samplerate: 44100 Hz
Channels: 2
Bits per sample: 24
Bitrate: 1408 kbps
Codec: FLAC
================================================================================


Thanks to the Original customer.
SitemapBooster (MAX Security) APK Full Version | Cefore-PLAZA | Rustins Original Danish Oil Wood Worktops Interior / Exterior Food Toy Safe In the Radiant City (2016) HDRip Full English Movie Watch Online Watch In the Radiant City (2016) HDRip Full English Movie & Download Free. English Movie In the Radiant City (2016) HDRip Full Cast and Crew Details. Film Name :- In the Radiant City (2016) HDRip Film Directed By :- Rachel Lambert Film Written by -- Nathan Gregorski, Rachel Lambert Starring of the Film :- Michael Abbott Jr., Marin Ireland, Madisen Beaty Genres -: ... | 300 Blatt DIN A4 180g/m² Fotopapier HGlossy+wasserfest von LabelOcean (R) | TV Shows